Deprecated: mysql_escape_string(): This function is deprecated; use mysql_real_escape_string() instead. in /home/streamzo/public_html/engine/classes/mysql.class.php on line 168 (Experimental, Abstract, Ambient) Various Artists - Theme: Desire - 1997 (Beautiful Records [BR003]), FLAC (tracks+.cue), lossless

Stream Zone - закачайся по максимуму!

«    Июль 2014    »
ПнВтСрЧтПтСбВс
 
1
2
3
4
5
6
7
8
9
10
11
12
13
14
15
16
17
18
19
20
21
22
23
24
25
26
27
28
29
30
31
 


(Experimental, Abstract, Ambient) Various Artists - Theme: Desire - 1997 (Beautiful Records [BR003]), FLAC (tracks+.cue), lossless




Various Artists

Theme: Desire

CD, Compilation
.-(Experimental, Abstract, Ambient) Various Artists - Theme: Desire - 1997 (Beautiful Records [BR003]), FLAC (tracks+.cue), lossless Жанр: Experimental, Abstract, Ambient

Год выпуска диска: 1997

Производитель диска: Canada

Аудио кодек: FLAC

Тип рипа: tracks+.cue

Битрейт аудио: lossless

Продолжительность: 01:07:56

.

Трэклист:

01 - Caul - The Garden - (03:37)

02 - Stone Glass Steel - Pain Hope & Pining (The Drowning of Swans) - (05:34)

03 - Rabid Ear Test - Ablution - (05:01)

04 - Alio Die - ...For Desire - (03:15)

05 - Ieran - Untitled (Extract) - (02:57)

06 - All Broken - Unrelenting Transition - (05:14)

07 - The Changelings - Pomegranate - (01:00)

08 - Voice of Eye - Adrift In The Methane Sea of Neptune - (04:44)

09 - Jarboe - Everything For Maria - (05:09)

10 - Estraya - Caterpillar Butterfly - (06:12)

11 - C17 - Skin - (07:08)

12 - Mandible Chatter - Delphinium Blue - (05:15)

13 - C17 - Sanctity - (02:46)

14 - Shinjuku Thief - Four Ember Weeks of Ecstatic Sleep - (06:16)

15 - Five Thousand Spirits - Orbis Tertius - (03:48)
.-Label: Beautiful Records

Catalog#: BR003

Format: CD, Compilation

Country: Canada

Released: 1997

Genre: Electronic

Style: Abstract, Experimental, Ambient
(Experimental, Abstract, Ambient) Various Artists - Theme: Desire - 1997 (Beautiful Records [BR003]), FLAC (tracks+.cue), lossless -


source


(Experimental, Abstract, Ambient) Various Artists - Theme: Desire - 1997 (Beautiful Records [BR003]), FLAC (tracks+.cue), lossless

thnx 2 Malophant (Experimental, Abstract, Ambient) Various Artists - Theme: Desire - 1997 (Beautiful Records [BR003]), FLAC (tracks+.cue), lossless




Theme: Desire.log



Exact Audio Copy V0.99 prebeta 4 from 23. January 2008
EAC extraction logfile from 7. January 2009, 17:51
Various / Theme:Desire
Used drive : TSSTcorpDVD+-RW TS-H653B Adapter: 1 ID: 0
Read mode : Secure
Utilize accurate stream : Yes
Defeat audio cache : Yes
Make use of C2 pointers : No
Read offset correction : 6
Overread into Lead-In and Lead-Out : No
Fill up missing offset samples with silence : Yes
Delete leading and trailing silent blocks : No
Null samples used in CRC calculations : Yes
Used interface : Installed external ASPI interface
Gap handling : Appended to previous track
Used output format : User Defined Encoder
Selected bitrate : 192 kBit/s
Quality : High
Add ID3 tag : No
Command line compressor : C:Program FilesExact Audio CopyFlacflac.exe
Additional command line options : -V -8 -T "artist=%a" -T "title=%t" -T "album=%g" -T "date=%y" -T "tracknumber=%n" -T "genre=%m" %s
TOC of the extracted CD
Track | Start | Length | Start sector | End sector
---------------------------------------------------------
1 | 0:00.00 | 3:37.00 | 0 | 16274
2 | 3:37.00 | 5:34.00 | 16275 | 41324
3 | 9:11.00 | 5:01.00 | 41325 | 63899
4 | 14:12.00 | 3:15.00 | 63900 | 78524
5 | 17:27.00 | 2:57.00 | 78525 | 91799
6 | 20:24.00 | 5:14.00 | 91800 | 115349
7 | 25:38.00 | 1:00.00 | 115350 | 119849
8 | 26:38.00 | 4:44.00 | 119850 | 141149
9 | 31:22.00 | 5:09.00 | 141150 | 164324
10 | 36:31.00 | 6:12.00 | 164325 | 192224
11 | 42:43.00 | 7:08.00 | 192225 | 224324
12 | 49:51.00 | 5:15.00 | 224325 | 247949
13 | 55:06.00 | 2:46.00 | 247950 | 260399
14 | 57:52.00 | 6:16.00 | 260400 | 288599
15 | 64:08.00 | 3:48.00 | 288600 | 305699
Track 1
Filename F:AVarious - Theme Desire [flac]1 - Caul - The Garden .wav
Pre-gap length 0:00:02.00
Peak level 73.6 %
Track quality 100.0 %
Test CRC 8DFFE3CE
Copy CRC 8DFFE3CE
Track not present in AccurateRip database
Copy OK
Track 2
Filename F:AVarious - Theme Desire [flac]2 - Stone Glass Steel - Pain Hope & Pining (The Drowning of Swans) .wav
Pre-gap length 0:00:02.00
Peak level 100.0 %
Track quality 100.0 %
Test CRC 89FAB4B0
Copy CRC 89FAB4B0
Track not present in AccurateRip database
Copy OK
Track 3
Filename F:AVarious - Theme Desire [flac]3 - Rabid Ear Test - Ablution .wav
Pre-gap length 0:00:01.98
Peak level 86.3 %
Track quality 100.0 %
Test CRC 5E156071
Copy CRC 5E156071
Track not present in AccurateRip database
Copy OK
Track 4
Filename F:AVarious - Theme Desire [flac]4 - Alio Die - ...For Desire .wav
Pre-gap length 0:00:02.00
Peak level 100.0 %
Track quality 100.0 %
Test CRC F9E629B0
Copy CRC F9E629B0
Track not present in AccurateRip database
Copy OK
Track 5
Filename F:AVarious - Theme Desire [flac]5 - Ieran - Untitled (Extract) .wav
Pre-gap length 0:00:02.00
Peak level 70.9 %
Track quality 99.9 %
Test CRC 9D4C6617
Copy CRC 9D4C6617
Track not present in AccurateRip database
Copy OK
Track 6
Filename F:AVarious - Theme Desire [flac]6 - All Broken - Unrelenting Transition .wav
Pre-gap length 0:00:02.00
Peak level 96.9 %
Track quality 100.0 %
Test CRC DC3E5DB9
Copy CRC DC3E5DB9
Track not present in AccurateRip database
Copy OK
Track 7
Filename F:AVarious - Theme Desire [flac]7 - The Changelings - Pomegranate .wav
Pre-gap length 0:00:02.00
Peak level 92.0 %
Track quality 100.0 %
Test CRC 646AFBFD
Copy CRC 646AFBFD
Track not present in AccurateRip database
Copy OK
Track 8
Filename F:AVarious - Theme Desire [flac]8 - Voice of Eye - Adrift In The Methane Sea of Neptune .wav
Pre-gap length 0:00:02.00
Peak level 100.0 %
Track quality 100.0 %
Test CRC A7931009
Copy CRC A7931009
Track not present in AccurateRip database
Copy OK
Track 9
Filename F:AVarious - Theme Desire [flac]9 - Jarboe - Everything For Maria .wav
Pre-gap length 0:00:02.00
Peak level 87.9 %
Track quality 100.0 %
Test CRC 5C264F80
Copy CRC 5C264F80
Track not present in AccurateRip database
Copy OK
Track 10
Filename F:AVarious - Theme Desire [flac]10 - Estraya - Caterpillar Butterfly .wav
Pre-gap length 0:00:01.98
Peak level 90.3 %
Track quality 100.0 %
Test CRC C0C496D5
Copy CRC C0C496D5
Track not present in AccurateRip database
Copy OK
Track 11
Filename F:AVarious - Theme Desire [flac]11 - C17 - Skin .wav
Pre-gap length 0:00:01.98
Peak level 100.0 %
Track quality 99.9 %
Test CRC 950DEC64
Copy CRC 950DEC64
Track not present in AccurateRip database
Copy OK
Track 12
Filename F:AVarious - Theme Desire [flac]12 - Mandible Chatter - Delphinium Blue .wav
Pre-gap length 0:00:02.00
Peak level 84.6 %
Track quality 100.0 %
Test CRC 7E5C9B0D
Copy CRC 7E5C9B0D
Track not present in AccurateRip database
Copy OK
Track 13
Filename F:AVarious - Theme Desire [flac]13 - C17 - Sanctity .wav
Pre-gap length 0:00:02.00
Peak level 81.9 %
Track quality 100.0 %
Test CRC 22E19301
Copy CRC 22E19301
Track not present in AccurateRip database
Copy OK
Track 14
Filename F:AVarious - Theme Desire [flac]14 - Shinjuku Thief - Four Ember Weeks of Ecstatic Sleep .wav
Pre-gap length 0:00:01.98
Peak level 99.9 %
Track quality 100.0 %
Test CRC F9D0884C
Copy CRC F9D0884C
Track not present in AccurateRip database
Copy OK
Track 15
Filename F:AVarious - Theme Desire [flac]15 - Five Thousand Spirits - Orbis Tertius .wav
Pre-gap length 0:00:02.00
Peak level 91.9 %
Track quality 100.0 %
Test CRC DCA15640
Copy CRC DCA15640
Track not present in AccurateRip database
Copy OK
None of the tracks are present in the AccurateRip database
No errors occurred
End of status report




Theme: Desire.cue



REM GENRE Electronic
REM DATE 1997
REM DISCID D30FEC0F
REM COMMENT "ExactAudioCopy v0.99pb4"
PERFORMER "Various"
TITLE "Theme:Desire"
FILE "01 - Caul - The Garden .wav" WAVE
TRACK 01 AUDIO
TITLE "The Garden"
PERFORMER "Caul"
INDEX 01 00:00:00
TRACK 02 AUDIO
TITLE "Pain Hope & Pining (The Drowning of Swans)"
PERFORMER "Stone Glass Steel"
INDEX 00 03:35:00
FILE "02 - Stone Glass Steel - Pain Hope & Pining (The Drowning of Swans) .wav" WAVE
INDEX 01 00:00:00
TRACK 03 AUDIO
TITLE "Ablution"
PERFORMER "Rabid Ear Test"
INDEX 00 05:32:01
FILE "03 - Rabid Ear Test - Ablution .wav" WAVE
INDEX 01 00:00:00
TRACK 04 AUDIO
TITLE "...For Desire"
PERFORMER "Alio Die"
INDEX 00 04:59:00
FILE "04 - Alio Die - ...For Desire .wav" WAVE
INDEX 01 00:00:00
TRACK 05 AUDIO
TITLE "Untitled (Extract)"
PERFORMER "Ieran"
INDEX 00 03:13:00
FILE "05 - Ieran - Untitled (Extract) .wav" WAVE
INDEX 01 00:00:00
TRACK 06 AUDIO
TITLE "Unrelenting Transition"
PERFORMER "All Broken"
INDEX 00 02:55:00
FILE "06 - All Broken - Unrelenting Transition .wav" WAVE
INDEX 01 00:00:00
TRACK 07 AUDIO
TITLE "Pomegranate"
PERFORMER "The Changelings"
INDEX 00 05:12:00
FILE "07 - The Changelings - Pomegranate .wav" WAVE
INDEX 01 00:00:00
TRACK 08 AUDIO
TITLE "Adrift In The Methane Sea of Neptune"
PERFORMER "Voice of Eye"
INDEX 00 00:58:00
FILE "08 - Voice of Eye - Adrift In The Methane Sea of Neptune .wav" WAVE
INDEX 01 00:00:00
TRACK 09 AUDIO
TITLE "Everything For Maria"
PERFORMER "Jarboe"
INDEX 00 04:42:00
FILE "09 - Jarboe - Everything For Maria .wav" WAVE
INDEX 01 00:00:00
TRACK 10 AUDIO
TITLE "Caterpillar Butterfly"
PERFORMER "Estraya"
INDEX 00 05:07:01
FILE "10 - Estraya - Caterpillar Butterfly .wav" WAVE
INDEX 01 00:00:00
TRACK 11 AUDIO
TITLE "Skin"
PERFORMER "C17"
INDEX 00 06:10:01
FILE "11 - C17 - Skin .wav" WAVE
INDEX 01 00:00:00
TRACK 12 AUDIO
TITLE "Delphinium Blue"
PERFORMER "Mandible Chatter"
INDEX 00 07:06:00
FILE "12 - Mandible Chatter - Delphinium Blue .wav" WAVE
INDEX 01 00:00:00
TRACK 13 AUDIO
TITLE "Sanctity"
PERFORMER "C17"
INDEX 00 05:13:00
FILE "13 - C17 - Sanctity .wav" WAVE
INDEX 01 00:00:00
TRACK 14 AUDIO
TITLE "Four Ember Weeks of Ecstatic Sleep"
PERFORMER "Shinjuku Thief"
INDEX 00 02:44:01
FILE "14 - Shinjuku Thief - Four Ember Weeks of Ecstatic Sleep .wav" WAVE
INDEX 01 00:00:00
TRACK 15 AUDIO
TITLE "Orbis Tertius"
PERFORMER "Five Thousand Spirits"
INDEX 00 06:14:00
FILE "15 - Five Thousand Spirits - Orbis Tertius .wav" WAVE
INDEX 01 00:00:00


-eNJ0Y!Machine

 (голосов: 0)
Просмотры: 155 Комментарии (0)


Опросы

Какая ваша любимая компьютерная игра?

CS 1.6
NFS
Flatout
Да я вообще не играю!

Реклама